1
Category: Movies Date Uploaded: March 2018 Completed: 0
Total Size: 858.5 MB Seeder(s): 0 Magnet Link:
Uploaded By: MovieFreak Leecher(s): 1 Direct Link:
Last Checked: 3 weeks ago

Update Current Stats >>> 

Hash Info: A17B943515C57B400EADEC69B980B03BEC42455F

Cover Picture:

5aa7991a60bcc2.17233695.jpg

Torrent Description:


[center]



General
Format                                   : Matroska
Format version                           : Version 4 / Version 2
File size                                : 859 MiB
Duration                                 : 1 h 30 min
Overall bit rate                         : 1 320 kb/s

Video
ID                                       : 1
Format                                   : AVC
Format/Info                              : Advanced Video Codec
Format profile                           : [email protected]
Format settings                          : CABAC / 4 Ref Frames
Format settings, CABAC                   : Yes
Format settings, RefFrames               : 4 frames
Codec ID                                 : V_MPEG4/ISO/AVC
Duration                                 : 1 h 30 min
Bit rate                                 : 1 200 kb/s
Width                                    : 1 280 pixels
Height                                   : 716 pixels
Display aspect ratio                     : 16:9
Frame rate mode                          : Constant
Frame rate                               : 23.976 (24000/1001) FPS
Color space                              : YUV
Chroma subsampling                       : 4:2:0
Bit depth                                : 8 bits
Scan type                                : Progressive
Bits/(Pixel*Frame)                       : 0.055
Stream size                              : 774 MiB (90%)
Writing library                          : x264 core 148 r2708 86b7198
Default                                  : Yes
Forced                                   : No

Audio
ID                                       : 2
Format                                   : AC-3
Format/Info                              : Audio Coding 3
Codec ID                                 : A_AC3
Duration                                 : 1 h 30 min
Bit rate mode                            : Constant
Bit rate                                 : 128 kb/s
Channel(s)                               : 2 channels
Channel positions                        : Front: L R
Sampling rate                            : 44.1 kHz
Frame rate                               : 28.711 FPS (1536 SPF)
Bit depth                                : 16 bits
Compression mode                         : Lossy
Stream size                              : 83.3 MiB (10%)
Language                                 : English
Service kind                             : Complete Main
Default                                  : Yes
Forced                                   : No

Text
ID                                       : 3
Format                                   : UTF-8
Codec ID                                 : S_TEXT/UTF8
Codec ID/Info                            : UTF-8 Plain Text
Duration                                 : 1 h 28 min
Bit rate                                 : 58 b/s
Count of elements                        : 1388
Stream size                              : 37.7 KiB (0%)
Language                                 : English
Default                                  : No
Forced                                   : No

Menu
00:00:00.000                             : en:Chapter 1
00:10:15.615                             : en:Chapter 2
00:19:39.178                             : en:Chapter 3
00:31:32.891                             : en:Chapter 4
00:40:05.403                             : en:Chapter 5
00:50:58.055                             : en:Chapter 6
01:02:01.718                             : en:Chapter 7
01:09:38.174                             : en:Chapter 8
01:19:40.776                             : en:Chapter 9
01:28:41.316                             : en:Chapter 10

 



[/center]

 

Cup of Love 2016 720p WEB-DL x264 ESub/Cup of Love 2016 720p WEB-DL x264 ESub.mkv  -  858.5MB
udp://tracker.pirateparty.gr:6969/announce
udp://tracker.opentrackr.org:1337/announce
http://tracker.opentrackr.org/announce
udp://tracker.vanitycore.co:6969/announce
udp://public.popcorn-tracker.org:6969/announce
udp://9.rarbg.to:2710/announce
udp://9.rarbg.me:2710/announce
udp://9.rarbg.com:2770/announce
udp://inferno.demonoid.pw:3391/announce
udp://tracker.internetwarriors.net:1337/announce
udp://ipv4.tracker.harry.lu:80/announce
udp://p4p.arenabg.ch:1337/announce
http://tracker.vanitycore.co:6969/announce
http://public.popcorn-tracker.org:6969/announce
udp://tracker.zer0day.to:1337/announce

Please Login Or Register to comment :)

Embed below badge on another website to get live stats in real time.

Just Copy below code and paste that wherever you want this badge to appear.