1
Category: Anime Date Uploaded: 3 weeks ago Completed: 183
Total Size: 1.47 GB Seeder(s): 7 Magnet Link:
Uploaded By: robbyrs Leecher(s): 4 Direct Link:
Last Checked: 7 hours ago

Update Current Stats >>> 

Hash Info: 98D2B6537C20EB4FEFFED39E68862CF38C90BEEE

Torrent Description:


Doraemon - Il film Nobita e la nascita del Giappone (2016/17).XviD.italian.Ac3-5.1.jap.mp3.sub.ita.MIRCrew


NO FOUND ONLY ORIGINAL RELEASE


My release is always in double track audio italian and Original audio
for select it use VLC or dvd player home
not use wmp

Doraemon - Il film Nobita e la nascita del Giappone (2016/17)

Titolo originale    ドラえもん のび太の日本誕生 (Doraemon: Nobita no Nippon tanjō)
Lingua originale    giapponese
Paese di produzione    Giappone
Anno    2016
Durata    104 minuti
Genere    animazione, avventura, commedia
Regia    Shinnosuke Yakuwa
Soggetto    Fujiko F. Fujio
Sceneggiatura    Shinnosuke Yakuwa Higashi Shimzu
Produttore    Momoko Kawakita, Shingo Namerikawa, Kirika Tsuruza, Hitoshi Ono, Rena Takahashi, Takuji Yamada, Kenji Yoshida
Produttore esecutivo    Toshihiko Kojima

Doppiatori italiani

    Pietro Ubaldi: Doraemon
    Davide Garbolino: Nobita Nobi
    Federica Valenti: Shizuka Minamoto
    Luca Bottale: Gian
    Patrizia Scianca: Suneo Honekawa
    Serena Clerici: Dorami
    Elda Olivieri: Madre di Nobita
    Cesare Rasini: Padre di Nobita
    Tommaso Sandri: Kukuru
    Elisabetta Cesone: Madre di Gian

In un tempo passato, un ragazzo caccia un pesce in un torrente. Quando però torna nel suo villaggio, scopre che è stato distrutto e grida dalla disperazione; subito dopo, viene risucchiato in un vortice spazio-temporale. La scena si sposta ai giorni nostri, dove Nobita, dopo essere stato sgridato per l'ennesima volta dalla madre a causa del suo pessimo rendimento scolastico, decide di scappare di casa.

Doraemon and friends trying to save a boy name Kukuru and his tribe from Gigazombie who want to change history for his own sake in the ancient times.




 

[spoiler]
General
Complete name                            : Doraemon - Il film Nobita e la nascita del Giappone (2017).Ita.jpn.sub.NUita - MIRCrew\Doraemon - Il film Nobita e. la nascita del Giappone. (2017).Ita.jpn.sub.ita - MIRCrew.avi
Format                                   : AVI
Format/Info                              : Audio Video Interleave
File size                                : 1.47 GiB
Duration                                 : 1h 43mn
Overall bit rate                         : 2 025 Kbps
Movie name                               : MIRCrew
Writing application                      : VirtualDubMod 1.5.10.2 (build 2542/release)
Writing library                          : VirtualDubMod build 2542/release

Video
ID                                       : 0
Format                                   : MPEG-4 Visual
Format profile                           : [email protected]
Format settings, BVOP                    : No
Format settings, QPel                    : No
Format settings, GMC                     : No warppoints
Format settings, Matrix                  : Default (H.263)
Codec ID                                 : XVID
Codec ID/Hint                            : XviD
Duration                                 : 1h 43mn
Bit rate                                 : 1 499 Kbps
Width                                    : 720 pixels
Height                                   : 404 pixels
Display aspect ratio                     : 16:9
Frame rate                               : 23.976 fps
Color space                              : YUV
Chroma subsampling                       : 4:2:0
Bit depth                                : 8 bits
Scan type                                : Progressive
Compression mode                         : Lossy
Bits/(Pixel*Frame)                       : 0.215
Stream size                              : 1.09 GiB (74%)
Writing library                          : XviD 64

Audio #1
ID                                       : 1
Format                                   : AC-3
Format/Info                              : Audio Coding 3
Mode extension                           : CM (complete main)
Codec ID                                 : 2000
Duration                                 : 1h 43mn
Bit rate mode                            : Constant
Bit rate                                 : 384 Kbps
Channel(s)                               : 6 channels
Channel positions                        : Front: L C R, Side: L R, LFE
Sampling rate                            : 48.0 KHz
Bit depth                                : 16 bits
Compression mode                         : Lossy
Stream size                              : 285 MiB (19%)
Alignment                                : Split accross interleaves
Interleave, duration                     : 42 ms (1.00 video frame)
Interleave, preload duration             : 500 ms

Audio #2
ID                                       : 2
Format                                   : MPEG Audio
Format version                           : Version 1
Format profile                           : Layer 3
Mode                                     : Joint stereo
Mode extension                           : MS Stereo
Codec ID                                 : 55
Codec ID/Hint                            : MP3
Duration                                 : 1h 43mn
Bit rate mode                            : Constant
Bit rate                                 : 128 Kbps
Channel(s)                               : 2 channels
Sampling rate                            : 48.0 KHz
Compression mode                         : Lossy
Stream size                              : 95.1 MiB (6%)
Alignment                                : Aligned on interleaves
Interleave, duration                     : 42 ms (1.00 video frame)
Interleave, preload duration             : 504 ms
Writing library                          : LAME3.99r
Encoding settings                        : -m j -V 4 -q 3 -lowpass 17 -b 128

 


[/spoiler]

 

Doraemon - Il film Nobita e. la nascita del Giappone. (2017).Ita.jpn.sub.NUita - MIRCrew/Doraemon - Il film Nobita e. la nascita del Giappone. (2017).Ita.jpn.sub.ita - MIRCrew.avi  -  1.5GB
Doraemon - Il film Nobita e. la nascita del Giappone. (2017).Ita.jpn.sub.NUita - MIRCrew/Doraemon - Il film Nobita e. la nascita del Giappone. (2017).Ita.jpn.sub.ita - MIRCrew.NUita.srt  -  132KB
Doraemon - Il film Nobita e. la nascita del Giappone. (2017).Ita.jpn.sub.NUita - MIRCrew/MIRCrew-ilCorSaRoNeRo.txt  -  53B
udp://tracker.coppersurfer.tk:6969/announce
udp://tracker.torrent.eu.org:451/announce
udp://tracker.pirateparty.gr:6969/announce
udp://tracker.opentrackr.org:1337/announce
udp://tracker.leechers-paradise.org:6969/announce
udp://tracker.eddie4.nl:6969/announce
udp://shadowshq.yi.org:6969/announce
udp://shadowshq.eddie4.nl:6969/announce
udp://inferno.demonoid.pw:3391/announce
udp://eddie4.nl:6969/announce
udp://9.rarbg.to:2730/announce
udp://9.rarbg.com:2710/announce
udp://9.rarbg.me:2780/announce
udp://62.138.0.158:6969/announce
udp://151.80.120.114:2710/announce

Please Login Or Register to comment :)

Embed below badge on another website to get live stats in real time.

Just Copy below code and paste that wherever you want this badge to appear.