1
Category: Movies Date Uploaded: March 2018 Completed: 1
Total Size: 827.35 MB Seeder(s): 0 Magnet Link:
Uploaded By: MovieFreak Leecher(s): 1 Direct Link:
Last Checked: 6 days ago

Update Current Stats >>> 

Hash Info: ED5B6E493D5CE253DC078252429BB84BD6CC9B16

Cover Picture:

5aa51664380fc7.36250077.jpg

Torrent Description:


[center]



General
Format                                   : Matroska
Format version                           : Version 4 / Version 2
File size                                : 827 MiB
Duration                                 : 1 h 45 min
Overall bit rate                         : 1 092 kb/s

Video
ID                                       : 1
Format                                   : AVC
Format/Info                              : Advanced Video Codec
Format profile                           : [email protected]
Format settings                          : CABAC / 4 Ref Frames
Format settings, CABAC                   : Yes
Format settings, RefFrames               : 4 frames
Codec ID                                 : V_MPEG4/ISO/AVC
Duration                                 : 1 h 45 min
Bit rate                                 : 900 kb/s
Width                                    : 1 280 pixels
Height                                   : 532 pixels
Display aspect ratio                     : 2.40:1
Frame rate mode                          : Constant
Frame rate                               : 23.976 (24000/1001) FPS
Color space                              : YUV
Chroma subsampling                       : 4:2:0
Bit depth                                : 8 bits
Scan type                                : Progressive
Bits/(Pixel*Frame)                       : 0.055
Stream size                              : 681 MiB (82%)
Writing library                          : x264 core 148 r2708 86b7198
Default                                  : Yes
Forced                                   : No

Audio
ID                                       : 2
Format                                   : AC-3
Format/Info                              : Audio Coding 3
Codec ID                                 : A_AC3
Duration                                 : 1 h 45 min
Bit rate mode                            : Constant
Bit rate                                 : 192 kb/s
Channel(s)                               : 6 channels
Channel positions                        : Front: L C R, Side: L R, LFE
Sampling rate                            : 48.0 kHz
Frame rate                               : 31.250 FPS (1536 SPF)
Bit depth                                : 16 bits
Compression mode                         : Lossy
Stream size                              : 145 MiB (18%)
Language                                 : English
Service kind                             : Complete Main
Default                                  : Yes
Forced                                   : No

 


 
 
 
 
 
[/center]

 

Film Stars Dont Die in Liverpool 2017 720p WEB-DL DD 5.1 x264/Film Stars Dont Die in Liverpool 2017 720p WEB-DL DD 5.1 x264.mkv  -  827.4MB
udp://tracker.pirateparty.gr:6969/announce
udp://tracker.opentrackr.org:1337/announce
http://tracker.opentrackr.org/announce
udp://tracker.vanitycore.co:6969/announce
udp://public.popcorn-tracker.org:6969/announce
udp://9.rarbg.to:2710/announce
udp://9.rarbg.me:2710/announce
udp://9.rarbg.com:2770/announce
udp://inferno.demonoid.pw:3391/announce
udp://tracker.internetwarriors.net:1337/announce
udp://ipv4.tracker.harry.lu:80/announce
udp://p4p.arenabg.ch:1337/announce
http://tracker.vanitycore.co:6969/announce
http://public.popcorn-tracker.org:6969/announce
udp://tracker.zer0day.to:1337/announce

Please Login Or Register to comment :)

Embed below badge on another website to get live stats in real time.

Just Copy below code and paste that wherever you want this badge to appear.