1
Category: Movies Date Uploaded: 2 weeks ago Completed: 23
Total Size: 1.94 GB Seeder(s): 12 Magnet Link:
Uploaded By: MovieFreak Leecher(s): 5 Direct Link:
Last Checked: 2 weeks ago

Update Current Stats >>> 

Hash Info: 7EE2A47ACF45081C26A2C43E4C7A43034BAB4B23

Torrent Description:


[center]


General
Format                                   : Matroska
Format version                           : Version 4 / Version 2
File size                                : 1.94 GiB
Duration                                 : 1 h 36 min
Overall bit rate                         : 2 882 kb/s

Video
ID                                       : 1
Format                                   : AVC
Format/Info                              : Advanced Video Codec
Format profile                           : [email protected]
Format settings                          : CABAC / 4 Ref Frames
Format settings, CABAC                   : Yes
Format settings, RefFrames               : 4 frames
Codec ID                                 : V_MPEG4/ISO/AVC
Duration                                 : 1 h 36 min
Bit rate                                 : 2 500 kb/s
Width                                    : 1 920 pixels
Height                                   : 798 pixels
Display aspect ratio                     : 2.40:1
Frame rate mode                          : Constant
Frame rate                               : 24.000 FPS
Color space                              : YUV
Chroma subsampling                       : 4:2:0
Bit depth                                : 8 bits
Scan type                                : Progressive
Bits/(Pixel*Frame)                       : 0.068
Stream size                              : 1.68 GiB (87%)
Writing library                          : x264 core 155 r2893 b00bcaf
Default                                  : Yes
Forced                                   : No

Audio
ID                                       : 4
Format                                   : AC-3
Format/Info                              : Audio Coding 3
Codec ID                                 : A_AC3
Duration                                 : 1 h 36 min
Bit rate mode                            : Constant
Bit rate                                 : 384 kb/s
Channel(s)                               : 6 channels
Channel positions                        : Front: L C R, Side: L R, LFE
Sampling rate                            : 48.0 kHz
Frame rate                               : 31.250 FPS (1536 SPF)
Bit depth                                : 16 bits
Compression mode                         : Lossy
Stream size                              : 265 MiB (13%)
Language                                 : English
Service kind                             : Complete Main
Default                                  : Yes
Forced                                   : No

Text #1
ID                                       : 2
Format                                   : UTF-8
Codec ID                                 : S_TEXT/UTF8
Codec ID/Info                            : UTF-8 Plain Text
Duration                                 : 1 h 29 min
Bit rate                                 : 44 b/s
Count of elements                        : 1138
Stream size                              : 29.1 KiB (0%)
Language                                 : English
Default                                  : No
Forced                                   : No

Text #2
ID                                       : 3
Format                                   : UTF-8
Codec ID                                 : S_TEXT/UTF8
Codec ID/Info                            : UTF-8 Plain Text
Duration                                 : 1 h 32 min
Bit rate                                 : 47 b/s
Count of elements                        : 1300
Stream size                              : 32.0 KiB (0%)
Title                                    : SDH
Language                                 : English
Default                                  : No
Forced                                   : No

 



[/center]

 

Habit 2017 1080p WEB-DL DD 5.1 x264 ESub [MW]/Habit 2017 1080p WEB-DL DD 5.1 x264 ESub [MW].mkv  -  1.9GB
udp://tracker.pirateparty.gr:6969/announce
udp://tracker.opentrackr.org:1337/announce
udp://tracker.vanitycore.co:6969/announce
udp://public.popcorn-tracker.org:6969/announce
udp://9.rarbg.to:2740/announce
udp://9.rarbg.me:2780/announce
udp://9.rarbg.com:2740/announce
udp://inferno.demonoid.pw:3391/announce
udp://tracker.tntvillage.scambioetico.org:2710/announce
udp://tracker.opentrackr.org:1337/announce
udp://tracker.coppersurfer.tk:80/announce

Please Login Or Register to comment :)

Embed below badge on another website to get live stats in real time.

Just Copy below code and paste that wherever you want this badge to appear.