1
Category: Movies Date Uploaded: May 2018 Completed: 841
Total Size: 903.87 MB Seeder(s): 1 Magnet Link:
Uploaded By: MovieFreak Leecher(s): 0 Direct Link:
Last Checked: 3 weeks ago

Update Current Stats >>> 

Hash Info: 42E6AB5060AA4AAD5D60CFFD552DC05527E067CE

Cover Picture:

5af58a4f5a8c25.88000215.jpg

Torrent Description:


[center]


General
Format                                   : Matroska
Format version                           : Version 4 / Version 2
File size                                : 904 MiB
Duration                                 : 2 h 7 min
Overall bit rate                         : 995 kb/s

Video
ID                                       : 1
Format                                   : AVC
Format/Info                              : Advanced Video Codec
Format profile                           : [email protected]
Format settings                          : CABAC / 4 Ref Frames
Format settings, CABAC                   : Yes
Format settings, RefFrames               : 4 frames
Codec ID                                 : V_MPEG4/ISO/AVC
Duration                                 : 2 h 7 min
Bit rate                                 : 900 kb/s
Width                                    : 1 280 pixels
Height                                   : 544 pixels
Display aspect ratio                     : 2.35:1
Frame rate mode                          : Constant
Frame rate                               : 23.976 (23976/1000) FPS
Color space                              : YUV
Chroma subsampling                       : 4:2:0
Bit depth                                : 8 bits
Scan type                                : Progressive
Bits/(Pixel*Frame)                       : 0.054
Stream size                              : 815 MiB (90%)
Writing library                          : x264 core 155 r2893 b00bcaf
Default                                  : Yes
Forced                                   : No

Audio
ID                                       : 2
Format                                   : AAC
Format/Info                              : Advanced Audio Codec
Format profile                           : LC
Codec ID                                 : A_AAC-2
Duration                                 : 2 h 7 min
Bit rate                                 : 96.0 kb/s
Channel(s)                               : 2 channels
Channel positions                        : Front: L R
Sampling rate                            : 48.0 kHz
Frame rate                               : 46.875 FPS (1024 SPF)
Compression mode                         : Lossy
Stream size                              : 87.2 MiB (10%)
Language                                 : Hindi
Default                                  : Yes
Forced                                   : No

Text
ID                                       : 3
Format                                   : UTF-8
Codec ID                                 : S_TEXT/UTF8
Codec ID/Info                            : UTF-8 Plain Text
Duration                                 : 2 h 1 min
Bit rate                                 : 55 b/s
Count of elements                        : 1526
Stream size                              : 49.3 KiB (0%)
Default                                  : Yes
Forced                                   : No

 

[/center]

 

Hate Story 4 2018 Hindi 720p WEB-DL AAC 2.0 x264 ESub [MW]/Hate Story 4 2018 Hindi 720p WEB-DL AAC 2.0 x264 ESub [MW].mkv  -  903.9MB
udp://tracker.pirateparty.gr:6969/announce
udp://tracker.opentrackr.org:1337/announce
udp://tracker.vanitycore.co:6969/announce
udp://public.popcorn-tracker.org:6969/announce
udp://9.rarbg.to:2710/announce
udp://9.rarbg.me:2730/announce
udp://9.rarbg.com:2800/announce
udp://inferno.demonoid.pw:3391/announce
udp://tracker.tntvillage.scambioetico.org:2710/announce
udp://tracker.opentrackr.org:1337/announce
udp://tracker.zer0day.to:1337/announce
udp://tracker.coppersurfer.tk:80/announce

Please Login Or Register to comment :)

Embed below badge on another website to get live stats in real time.

Just Copy below code and paste that wherever you want this badge to appear.