1
Category: Movies Date Uploaded: 2 weeks ago Completed: 568
Total Size: 1.06 GB Seeder(s): 36 Magnet Link:
Uploaded By: full4movies Leecher(s): 12 Direct Link:
Last Checked: 6 days ago

Update Current Stats >>> 

Hash Info: 64C452FC241A52645153BF1D45BE7BA9D9307FD9

Cover Picture:

5af8372c6e1329.39764001.jpg

ScreenShot(s):

5af8372c7029b2.35934917.jpg

Torrent Description:


General
Complete name                  : Jai Lava Kusa (2018) Hindi Dubbed Movie HD TVRip x264 AAC by Full4movies.mkv
Format                         : Matroska
Format version                 : Version 4 / Version 2
File size                      : 1.06 GiB
Duration                       : 2 h 14 min
Overall bit rate               : 1 129 kb/s
Movie name                     : Jai Lava Kusa (2018) Hindi - www.Full4moveis.co
Encoded date                   : UTC 2018-05-13 12:39:33
Writing application            : mkvmerge v8.1.0 ('Psychedelic Postcard') 32bit
Writing library                : libebml v1.3.1 + libmatroska v1.4.2

Video
ID                             : 1
Format                         : AVC
Format/Info                    : Advanced Video Codec
Format profile                 : [email protected]
Format settings, CABAC         : Yes
Format settings, RefFrames     : 4 frames
Codec ID                       : V_MPEG4/ISO/AVC
Duration                       : 2 h 14 min
Bit rate                       : 968 kb/s
Width                          : 768 pixels
Height                         : 430 pixels
Display aspect ratio           : 1.994
Original display aspect ratio  : 16:9
Frame rate mode                : Variable
Frame rate                     : 24.959 FPS
Color space                    : YUV
Chroma subsampling             : 4:2:0
Bit depth                      : 8 bits
Scan type                      : Progressive
Bits/(Pixel*Frame)             : 0.117
Stream size                    : 932 MiB (86%)
Writing library                : x264 core 148 r2708 86b7198
Language                       : Telugu
Default                        : Yes
Forced                         : No
Color range                    : Limited
Color primaries                : BT.601 PAL
Transfer characteristics       : BT.709
Matrix coefficients            : BT.601

Audio
ID                             : 2
Format                         : AAC
Format/Info                    : Advanced Audio Codec
Format profile                 : LC
Codec ID                       : A_AAC
Duration                       : 2 h 14 min
Bit rate                       : 160 kb/s
Channel(s)                     : 2 channels
Channel positions              : Front: L R
Sampling rate                  : 48.0 kHz
Frame rate                     : 46.875 FPS (1024 SPF)
Compression mode               : Lossy
Delay relative to video        : -21 ms
Stream size                    : 154 MiB (14%)
Language                       : Hindi
Default                        : Yes
Forced                         : No

Jai Lava Kusa (2018) Hindi Dubbed Movie HD TVRip x264 AAC by Full4movies.mkv  -  1.1GB
udp://tracker.coppersurfer.tk:6969/announce
udp://tracker.opentrackr.org:1337/announce
udp://9.rarbg.me:2710/announce
udp://tracker.torrent.eu.org:451/announce
udp://open.stealth.si:80/announce
udp://public.popcorn-tracker.org:6969/announce
udp://p4p.arenabg.ch:1337/announce
udp://tracker.zer0day.to:1337/announce
udp://tracker.pirateparty.gr:6969/announce
udp://tracker.leechers-paradise.org:6969/announce
udp://tracker.tiny-vps.com:6969/announce
udp://bt.firebit.co.uk:6969/announce
udp://inferno.demonoid.pw:3397/announce
udp://shadowshq.yi.org:6969/announce
udp://9.rarbg.to:2780/announce

Please Login Or Register to comment :)

Embed below badge on another website to get live stats in real time.

Just Copy below code and paste that wherever you want this badge to appear.