1
Category: Movies Date Uploaded: March 2018 Completed: 1336
Total Size: 808.78 MB Seeder(s): 3 Magnet Link:
Uploaded By: MovieFreak Leecher(s): 1 Direct Link:
Last Checked: 3 weeks ago

Update Current Stats >>> 

Hash Info: 017741D08932F545E5673FAF613A38F3B8229EC3

Cover Picture:

5aa50c07b6f213.28144480.jpg

Torrent Description:


[center]


General
Format                                   : Matroska
Format version                           : Version 4 / Version 2
File size                                : 809 MiB
Duration                                 : 2 h 1 min
Overall bit rate                         : 931 kb/s

Video
ID                                       : 1
Format                                   : AVC
Format/Info                              : Advanced Video Codec
Format profile                           : [email protected]
Format settings                          : CABAC / 6 Ref Frames
Format settings, CABAC                   : Yes
Format settings, RefFrames               : 6 frames
Codec ID                                 : V_MPEG4/ISO/AVC
Duration                                 : 2 h 1 min
Bit rate                                 : 708 kb/s
Width                                    : 1 280 pixels
Height                                   : 544 pixels
Display aspect ratio                     : 2.35:1
Frame rate mode                          : Constant
Frame rate                               : 23.976 (23976/1000) FPS
Color space                              : YUV
Chroma subsampling                       : 4:2:0
Bit depth                                : 8 bits
Scan type                                : Progressive
Bits/(Pixel*Frame)                       : 0.042
Stream size                              : 615 MiB (76%)
Writing library                          : x264 core 120 r2164 da19765
Default                                  : Yes
Forced                                   : No

Audio #1
ID                                       : 2
Format                                   : AC-3
Format/Info                              : Audio Coding 3
Codec ID                                 : A_AC3
Duration                                 : 2 h 1 min
Bit rate mode                            : Constant
Bit rate                                 : 128 kb/s
Channel(s)                               : 2 channels
Channel positions                        : Front: L R
Sampling rate                            : 48.0 kHz
Frame rate                               : 31.250 FPS (1536 SPF)
Bit depth                                : 16 bits
Compression mode                         : Lossy
Delay relative to video                  : 14 ms
Stream size                              : 110 MiB (14%)
Language                                 : Hindi
Service kind                             : Complete Main
Default                                  : Yes
Forced                                   : No

Audio #2
ID                                       : 3
Format                                   : AAC
Format/Info                              : Advanced Audio Codec
Format profile                           : LC
Codec ID                                 : A_AAC-2
Duration                                 : 2 h 1 min
Bit rate                                 : 94.0 kb/s
Channel(s)                               : 2 channels
Channel positions                        : Front: L R
Sampling rate                            : 44.1 kHz
Frame rate                               : 43.066 FPS (1024 SPF)
Compression mode                         : Lossy
Stream size                              : 81.7 MiB (10%)
Language                                 : English
Default                                  : No
Forced                                   : No

Text
ID                                       : 4
Format                                   : UTF-8
Codec ID                                 : S_TEXT/UTF8
Codec ID/Info                            : UTF-8 Plain Text
Duration                                 : 1 h 52 min
Bit rate                                 : 49 b/s
Count of elements                        : 1090
Stream size                              : 40.6 KiB (0%)
Language                                 : English
Default                                  : Yes
Forced                                   : No

 



[/center]

Knowing 2009 720p BRRip x264 Dual Audio [Hindi DD 2.0 - English 2.0] ESub/Knowing 2009 720p BRRip x264 Dual Audio [Hindi DD 2.0 - English 2.0] ESub.mkv  -  808.8MB
udp://tracker.pirateparty.gr:6969/announce
udp://tracker.opentrackr.org:1337/announce
http://tracker.opentrackr.org/announce
udp://tracker.vanitycore.co:6969/announce
udp://public.popcorn-tracker.org:6969/announce
udp://9.rarbg.to:2710/announce
udp://9.rarbg.me:2710/announce
udp://9.rarbg.com:2770/announce
udp://inferno.demonoid.pw:3391/announce
udp://tracker.internetwarriors.net:1337/announce
udp://ipv4.tracker.harry.lu:80/announce
udp://p4p.arenabg.ch:1337/announce
http://tracker.vanitycore.co:6969/announce
http://public.popcorn-tracker.org:6969/announce
udp://tracker.zer0day.to:1337/announce

Please Login Or Register to comment :)

Embed below badge on another website to get live stats in real time.

Just Copy below code and paste that wherever you want this badge to appear.