1
Category: Movies Date Uploaded: 2 weeks ago Completed: 520
Total Size: 1.02 GB Seeder(s): 40 Magnet Link:
Uploaded By: MovieFreak Leecher(s): 20 Direct Link:
Last Checked: 5 days ago

Update Current Stats >>> 

Hash Info: B110F4702FECF3434536207384ACC59F4534434E

Torrent Description:


[center]


General
Format                                   : Matroska
Format version                           : Version 4 / Version 2
File size                                : 1.02 GiB
Duration                                 : 1 h 28 min
Overall bit rate                         : 1 644 kb/s

Video
ID                                       : 1
Format                                   : AVC
Format/Info                              : Advanced Video Codec
Format profile                           : [email protected]
Format settings                          : CABAC / 4 Ref Frames
Format settings, CABAC                   : Yes
Format settings, RefFrames               : 4 frames
Codec ID                                 : V_MPEG4/ISO/AVC
Duration                                 : 1 h 28 min
Bit rate                                 : 1 400 kb/s
Width                                    : 1 280 pixels
Height                                   : 720 pixels
Display aspect ratio                     : 16:9
Frame rate mode                          : Constant
Frame rate                               : 23.976 (24000/1001) FPS
Color space                              : YUV
Chroma subsampling                       : 4:2:0
Bit depth                                : 8 bits
Scan type                                : Progressive
Bits/(Pixel*Frame)                       : 0.063
Stream size                              : 858 MiB (82%)
Writing library                          : x264 core 155 r2893 b00bcaf
Default                                  : Yes
Forced                                   : No

Audio #1
ID                                       : 2
Format                                   : AAC
Format/Info                              : Advanced Audio Codec
Format profile                           : LC
Codec ID                                 : A_AAC-2
Duration                                 : 1 h 28 min
Bit rate                                 : 192 kb/s
Channel(s)                               : 2 channels
Channel positions                        : Front: L R
Sampling rate                            : 48.0 kHz
Frame rate                               : 46.875 FPS (1024 SPF)
Compression mode                         : Lossy
Stream size                              : 122 MiB (12%)
Language                                 : Hindi
Default                                  : Yes
Forced                                   : No

Audio #2
ID                                       : 3
Format                                   : AAC
Format/Info                              : Advanced Audio Codec
Format profile                           : LC
Codec ID                                 : A_AAC-2
Duration                                 : 1 h 28 min
Bit rate                                 : 96.0 kb/s
Channel(s)                               : 2 channels
Channel positions                        : Front: L R
Sampling rate                            : 48.0 kHz
Frame rate                               : 46.875 FPS (1024 SPF)
Compression mode                         : Lossy
Stream size                              : 60.8 MiB (6%)
Language                                 : Chinese
Default                                  : No
Forced                                   : No

Text
ID                                       : 4
Format                                   : UTF-8
Codec ID                                 : S_TEXT/UTF8
Codec ID/Info                            : UTF-8 Plain Text
Duration                                 : 1 h 23 min
Bit rate                                 : 33 b/s
Count of elements                        : 671
Stream size                              : 20.8 KiB (0%)
Default                                  : Yes
Forced                                   : No



[/center]

 

Legendary Assassin 2008 720p BluRay x264 Dual Audio [Hindi 2.0 - Chinese 2.0] ESub [MW]/Legendary Assassin 2008 720p BluRay x264 Dual Audio [Hindi 2.0 - Chinese 2.0] ESub [MW].mkv  -  1GB
udp://tracker.pirateparty.gr:6969/announce
udp://tracker.opentrackr.org:1337/announce
udp://tracker.vanitycore.co:6969/announce
udp://public.popcorn-tracker.org:6969/announce
udp://9.rarbg.to:2740/announce
udp://9.rarbg.me:2780/announce
udp://9.rarbg.com:2740/announce
udp://inferno.demonoid.pw:3391/announce
udp://tracker.tntvillage.scambioetico.org:2710/announce
udp://tracker.opentrackr.org:1337/announce
udp://tracker.coppersurfer.tk:80/announce

Please Login Or Register to comment :)

Embed below badge on another website to get live stats in real time.

Just Copy below code and paste that wherever you want this badge to appear.