1
Category: Movies Date Uploaded: May 2018 Completed: 232
Total Size: 1.35 GB Seeder(s): 1 Magnet Link:
Uploaded By: full4movies Leecher(s): 0 Direct Link:
Last Checked: last month

Update Current Stats >>> 

Hash Info: 8A3D52442E24D3F7719309CB58886383FEF1215A

Cover Picture:

5af53bca6c8ce8.74899320.jpg

ScreenShot(s):

5af53bca6e8fd3.06521455.jpg

Torrent Description:


General
Complete name                  : Padman (2018) 720p Hindi HDRip x264 ACC by Full4movies.mkv
Format                         : Matroska
Format version                 : Version 4 / Version 2
File size                      : 1.35 GiB
Duration                       : 2 h 11 min
Overall bit rate               : 1 479 kb/s
Movie name                     : Padman (2018) - www.Full4movie.co
Encoded date                   : UTC 2018-05-11 05:55:58
Writing application            : mkvmerge v8.1.0 ('Psychedelic Postcard') 32bit
Writing library                : libebml v1.3.1 + libmatroska v1.4.2

Video
ID                             : 1
Format                         : AVC
Format/Info                    : Advanced Video Codec
Format profile                 : [email protected]
Format settings, CABAC         : Yes
Format settings, RefFrames     : 4 frames
Codec ID                       : V_MPEG4/ISO/AVC
Duration                       : 2 h 11 min
Bit rate                       : 1 361 kb/s
Width                          : 1 280 pixels
Height                         : 544 pixels
Display aspect ratio           : 2.35:1
Frame rate mode                : Variable
Frame rate                     : 29.179 FPS
Color space                    : YUV
Chroma subsampling             : 4:2:0
Bit depth                      : 8 bits
Scan type                      : Progressive
Bits/(Pixel*Frame)             : 0.067
Stream size                    : 1.24 GiB (91%)
Writing library                : x264 core 112
Language                       : Hindi
Default                        : Yes
Forced                         : No
Color range                    : Limited
Color primaries                : BT.709
Transfer characteristics       : BT.709
Matrix coefficients            : BT.709

Audio
ID                             : 2
Format                         : AAC
Format/Info                    : Advanced Audio Codec
Format profile                 : LC
Codec ID                       : A_AAC
Duration                       : 2 h 11 min
Bit rate                       : 128 kb/s
Channel(s)                     : 2 channels
Channel positions              : Front: L R
Sampling rate                  : 44.1 kHz
Frame rate                     : 43.066 FPS (1024 SPF)
Compression mode               : Lossy
Stream size                    : 120 MiB (9%)
Language                       : Hindi
Default                        : Yes
Forced                         : No

Padman (2018) 720p Hindi HDRip x264 ACC by Full4movies.mkv  -  1.4GB
udp://tracker.coppersurfer.tk:6969/announce
udp://tracker.opentrackr.org:1337/announce
udp://9.rarbg.me:2710/announce
udp://tracker.torrent.eu.org:451/announce
udp://open.stealth.si:80/announce
udp://public.popcorn-tracker.org:6969/announce
udp://p4p.arenabg.ch:1337/announce
udp://tracker.zer0day.to:1337/announce
udp://tracker.pirateparty.gr:6969/announce
udp://tracker.leechers-paradise.org:6969/announce
udp://tracker.tiny-vps.com:6969/announce
udp://bt.firebit.co.uk:6969/announce
udp://inferno.demonoid.pw:3397/announce
udp://shadowshq.yi.org:6969/announce
udp://9.rarbg.to:2780/announce

Please Login Or Register to comment :)

Embed below badge on another website to get live stats in real time.

Just Copy below code and paste that wherever you want this badge to appear.