1
Category: Movies Date Uploaded: 2 weeks ago Completed: 540
Total Size: 1.9 GB Seeder(s): 48 Magnet Link:
Uploaded By: MovieFreak Leecher(s): 9 Direct Link:
Last Checked: 4 days ago

Update Current Stats >>> 

Hash Info: 9AF5762D715A5ECC537C59188794405ACCF60447

Cover Picture:

5af6b24a8d83e0.18222665.jpg

Torrent Description:


[center]


General
Format                                   : Matroska
Format version                           : Version 4 / Version 2
File size                                : 1.90 GiB
Duration                                 : 2 h 11 min
Overall bit rate                         : 2 070 kb/s

Video
ID                                       : 1
Format                                   : AVC
Format/Info                              : Advanced Video Codec
Format profile                           : [email protected]
Format settings                          : CABAC / 4 Ref Frames
Format settings, CABAC                   : Yes
Format settings, RefFrames               : 4 frames
Codec ID                                 : V_MPEG4/ISO/AVC
Duration                                 : 2 h 11 min
Bit rate                                 : 1 900 kb/s
Width                                    : 1 920 pixels
Height                                   : 800 pixels
Display aspect ratio                     : 2.40:1
Frame rate mode                          : Constant
Frame rate                               : 30.000 FPS
Color space                              : YUV
Chroma subsampling                       : 4:2:0
Bit depth                                : 8 bits
Scan type                                : Progressive
Bits/(Pixel*Frame)                       : 0.041
Stream size                              : 1.72 GiB (91%)
Writing library                          : x264 core 155 r2893 b00bcaf
Default                                  : Yes
Forced                                   : No

Audio
ID                                       : 2
Format                                   : AAC
Format/Info                              : Advanced Audio Codec
Format profile                           : LC
Codec ID                                 : A_AAC-2
Duration                                 : 2 h 11 min
Bit rate                                 : 192 kb/s
Channel(s)                               : 2 channels
Channel positions                        : Front: L R
Sampling rate                            : 48.0 kHz
Frame rate                               : 46.875 FPS (1024 SPF)
Compression mode                         : Lossy
Stream size                              : 180 MiB (9%)
Default                                  : Yes
Forced                                   : No

 



[/center]

Padman 2018 Hindi 1080p WEBRip x264 [MW]/Padman 2018 Hindi 1080p WEBRip x264 [MW].mkv  -  1.9GB
udp://tracker.pirateparty.gr:6969/announce
udp://tracker.opentrackr.org:1337/announce
udp://tracker.vanitycore.co:6969/announce
udp://public.popcorn-tracker.org:6969/announce
udp://9.rarbg.to:2710/announce
udp://9.rarbg.me:2730/announce
udp://9.rarbg.com:2800/announce
udp://inferno.demonoid.pw:3391/announce
udp://tracker.tntvillage.scambioetico.org:2710/announce
udp://tracker.opentrackr.org:1337/announce
udp://tracker.zer0day.to:1337/announce
udp://tracker.coppersurfer.tk:80/announce

Please Login Or Register to comment :)

Embed below badge on another website to get live stats in real time.

Just Copy below code and paste that wherever you want this badge to appear.