1
Category: Movies Date Uploaded: May 2018 Completed: 6174
Total Size: 1.28 GB Seeder(s): 9 Magnet Link:
Uploaded By: MovieFreak Leecher(s): 3 Direct Link:
Last Checked: 3 weeks ago

Update Current Stats >>> 

Hash Info: A3AA985CDBAB7FF966F6AC5C89FFF07F06331214

Cover Picture:

5af94b8f5f5a90.56076588.jpg

Torrent Description:


[center]


General
Format                                   : Matroska
Format version                           : Version 4 / Version 2
File size                                : 1.28 GiB
Duration                                 : 2 h 20 min
Overall bit rate                         : 1 307 kb/s

Video
ID                                       : 1
Format                                   : AVC
Format/Info                              : Advanced Video Codec
Format profile                           : [email protected]
Format settings                          : CABAC / 4 Ref Frames
Format settings, CABAC                   : Yes
Format settings, RefFrames               : 4 frames
Codec ID                                 : V_MPEG4/ISO/AVC
Duration                                 : 2 h 20 min
Bit rate                                 : 1 000 kb/s
Width                                    : 1 280 pixels
Height                                   : 532 pixels
Display aspect ratio                     : 2.40:1
Frame rate mode                          : Constant
Frame rate                               : 23.976 (24000/1001) FPS
Color space                              : YUV
Chroma subsampling                       : 4:2:0
Bit depth                                : 8 bits
Scan type                                : Progressive
Bits/(Pixel*Frame)                       : 0.061
Stream size                              : 990 MiB (75%)
Writing library                          : x264 core 155 r2893 b00bcaf
Default                                  : Yes
Forced                                   : No

Audio #1
ID                                       : 2
Format                                   : AC-3
Format/Info                              : Audio Coding 3
Codec ID                                 : A_AC3
Duration                                 : 2 h 20 min
Bit rate mode                            : Constant
Bit rate                                 : 224 kb/s
Channel(s)                               : 6 channels
Channel positions                        : Front: L C R, Side: L R, LFE
Sampling rate                            : 48.0 kHz
Frame rate                               : 31.250 FPS (1536 SPF)
Bit depth                                : 16 bits
Compression mode                         : Lossy
Stream size                              : 225 MiB (17%)
Language                                 : Hindi
Service kind                             : Complete Main
Default                                  : No
Forced                                   : No

Audio #2
ID                                       : 3
Format                                   : AAC
Format/Info                              : Advanced Audio Codec
Format profile                           : HE-AAC / LC
Format settings                          : Explicit
Codec ID                                 : A_AAC-2
Duration                                 : 2 h 20 min
Bit rate                                 : 96.0 kb/s
Channel(s)                               : 2 channels
Channel positions                        : Front: L R
Sampling rate                            : 48.0 kHz / 24.0 kHz
Frame rate                               : 23.438 FPS (1024 SPF)
Compression mode                         : Lossy
Stream size                              : 95.0 MiB (7%)
Language                                 : English
Default                                  : No
Forced                                   : No

Text
ID                                       : 4
Format                                   : UTF-8
Codec ID                                 : S_TEXT/UTF8
Codec ID/Info                            : UTF-8 Plain Text
Duration                                 : 2 h 11 min
Bit rate                                 : 46 b/s
Count of elements                        : 1597
Stream size                              : 45.3 KiB (0%)
Language                                 : English
Default                                  : Yes
Forced                                   : No

 



[/center]

 

Red Sparrow 2018 720p BluRay x264 Dual Audio [Hindi DD 5.1 - English 2.0] ESub [MW]/Red Sparrow 2018 720p BluRay x264 Dual Audio [Hindi DD 5.1 - English 2.0] ESub [MW].mkv  -  1.3GB
https://www.torrforce.net/announce.php
udp://tracker.pirateparty.gr:6969/announce
udp://tracker.opentrackr.org:1337/announce
udp://tracker.vanitycore.co:6969/announce
udp://public.popcorn-tracker.org:6969/announce
udp://9.rarbg.to:2710/announce
udp://9.rarbg.me:2730/announce
udp://9.rarbg.com:2800/announce
udp://inferno.demonoid.pw:3391/announce
udp://tracker.tntvillage.scambioetico.org:2710/announce
udp://tracker.opentrackr.org:1337/announce
udp://tracker.coppersurfer.tk:80/announce

Please Login Or Register to comment :)

Embed below badge on another website to get live stats in real time.

Just Copy below code and paste that wherever you want this badge to appear.