1
Category: Movies Date Uploaded: May 2018 Completed: 6159
Total Size: 651.98 MB Seeder(s): 64 Magnet Link:
Uploaded By: full4movies Leecher(s): 7 Direct Link:
Last Checked: 4 weeks ago

Update Current Stats >>> 

Hash Info: E4355EF5B63ED4110AB6D8964D91A5734F7FAE1E

Cover Picture:

5af6f0ca9ab6b0.36574421.jpg

ScreenShot(s):

5af6f0ca9ad448.90899539.jpg

Torrent Description:


General
Complete name                  : Spyder (2017) Hindi Dubbed HDRip x264 AAC by Full4movies.mkv
Format                         : Matroska
Format version                 : Version 4 / Version 2
File size                      : 652 MiB
Duration                       : 2 h 16 min
Overall bit rate               : 668 kb/s
Movie name                     : Spyder (2017) Hindi - www.Full4movies.co
Encoded date                   : UTC 2018-05-12 13:09:46
Writing application            : mkvmerge v8.1.0 ('Psychedelic Postcard') 32bit
Writing library                : libebml v1.3.1 + libmatroska v1.4.2

Video
ID                             : 1
Format                         : AVC
Format/Info                    : Advanced Video Codec
Format profile                 : [email protected]
Format settings, CABAC         : Yes
Format settings, RefFrames     : 4 frames
Codec ID                       : V_MPEG4/ISO/AVC
Duration                       : 2 h 16 min
Bit rate                       : 622 kb/s
Width                          : 720 pixels
Height                         : 304 pixels
Display aspect ratio           : 2.35:1
Frame rate mode                : Variable
Frame rate                     : 29.970 (30000/1001) FPS
Color space                    : YUV
Chroma subsampling             : 4:2:0
Bit depth                      : 8 bits
Scan type                      : Progressive
Bits/(Pixel*Frame)             : 0.095
Stream size                    : 607 MiB (93%)
Writing library                : x264 core 155 r2901 7d0ff22
Language                       : Hindi
Default                        : Yes
Forced                         : No

Audio
ID                             : 2
Format                         : AAC
Format/Info                    : Advanced Audio Codec
Format profile                 : LC
Codec ID                       : A_AAC
Duration                       : 2 h 16 min
Bit rate                       : 42.4 kb/s
Channel(s)                     : 2 channels
Channel positions              : Front: L R
Sampling rate                  : 48.0 kHz
Frame rate                     : 46.875 FPS (1024 SPF)
Compression mode               : Lossy
Delay relative to video        : -21 ms
Stream size                    : 41.4 MiB (6%)
Language                       : Hindi
Default                        : Yes
Forced                         : No

Spyder (2017) Hindi Dubbed HDRip x264 AAC by Full4movies.mkv  -  652MB
udp://tracker.coppersurfer.tk:6969/announce
udp://tracker.opentrackr.org:1337/announce
udp://9.rarbg.me:2710/announce
udp://tracker.torrent.eu.org:451/announce
udp://open.stealth.si:80/announce
udp://public.popcorn-tracker.org:6969/announce
udp://p4p.arenabg.ch:1337/announce
udp://tracker.zer0day.to:1337/announce
udp://tracker.pirateparty.gr:6969/announce
udp://tracker.leechers-paradise.org:6969/announce
udp://tracker.tiny-vps.com:6969/announce
udp://bt.firebit.co.uk:6969/announce
udp://inferno.demonoid.pw:3397/announce
udp://shadowshq.yi.org:6969/announce
udp://9.rarbg.to:2780/announce

Please Login Or Register to comment :)

Embed below badge on another website to get live stats in real time.

Just Copy below code and paste that wherever you want this badge to appear.