1
Category: Movies Date Uploaded: May 2018 Completed: 5269
Total Size: 1.39 GB Seeder(s): 43 Magnet Link:
Uploaded By: full4movies Leecher(s): 4 Direct Link:
Last Checked: 3 days ago

Update Current Stats >>> 

Hash Info: 12DF92084FCA573463DEF29574B4059EB120C3FA

Cover Picture:

5af6ee2f2bbd14.69916766.jpg

ScreenShot(s):

5af6ee2f2d2e71.18815037.jpg

Torrent Description:


General
Complete name                  : Spyder (2018) 720P Hindi Dubbed Movie HDRip x264 Mp3 by Full4movies.mkv
Format                         : Matroska
Format version                 : Version 4 / Version 2
File size                      : 1.39 GiB
Duration                       : 2 h 16 min
Overall bit rate mode          : Variable
Overall bit rate               : 1 455 kb/s
Movie name                     : Spyder (2018) Hindi - www.Full4moveis.co
Encoded date                   : UTC 2018-05-12 13:15:02
Writing application            : mkvmerge v8.1.0 ('Psychedelic Postcard') 32bit
Writing library                : libebml v1.3.1 + libmatroska v1.4.2

Video
ID                             : 1
Format                         : AVC
Format/Info                    : Advanced Video Codec
Format profile                 : [email protected]
Format settings, CABAC         : Yes
Format settings, RefFrames     : 4 frames
Codec ID                       : V_MPEG4/ISO/AVC
Duration                       : 2 h 16 min
Bit rate                       : 1 358 kb/s
Width                          : 1 280 pixels
Height                         : 544 pixels
Display aspect ratio           : 2.35:1
Frame rate mode                : Constant
Frame rate                     : 29.970 (30000/1001) FPS
Color space                    : YUV
Chroma subsampling             : 4:2:0
Bit depth                      : 8 bits
Scan type                      : Progressive
Bits/(Pixel*Frame)             : 0.065
Stream size                    : 1.30 GiB (93%)
Writing library                : x264 core 148 r2744 b97ae06
Language                       : Telugu
Default                        : Yes
Forced                         : No

Audio
ID                             : 2
Format                         : MPEG Audio
Format version                 : Version 1
Format profile                 : Layer 3
Mode                           : Joint stereo
Mode extension                 : MS Stereo
Codec ID                       : A_MPEG/L3
Codec ID/Hint                  : MP3
Duration                       : 2 h 16 min
Bit rate mode                  : Variable
Bit rate                       : 96.0 kb/s
Channel(s)                     : 2 channels
Sampling rate                  : 48.0 kHz
Frame rate                     : 41.667 FPS (1152 SPF)
Compression mode               : Lossy
Stream size                    : 92.1 MiB (6%)
Writing library                : LAME3.99r
Encoding settings              : -m j -V 4 -q 3 -lowpass 15.1 --abr 96
Language                       : Hindi
Default                        : Yes
Forced                         : No

Spyder (2018) 720P Hindi Dubbed Movie HDRip x264 Mp3 by Full4movies.mkv  -  1.4GB
udp://tracker.coppersurfer.tk:6969/announce
udp://tracker.opentrackr.org:1337/announce
udp://9.rarbg.me:2710/announce
udp://tracker.torrent.eu.org:451/announce
udp://open.stealth.si:80/announce
udp://public.popcorn-tracker.org:6969/announce
udp://p4p.arenabg.ch:1337/announce
udp://tracker.zer0day.to:1337/announce
udp://tracker.pirateparty.gr:6969/announce
udp://tracker.leechers-paradise.org:6969/announce
udp://tracker.tiny-vps.com:6969/announce
udp://bt.firebit.co.uk:6969/announce
udp://inferno.demonoid.pw:3397/announce
udp://shadowshq.yi.org:6969/announce
udp://9.rarbg.to:2780/announce

Please Login Or Register to comment :)

Embed below badge on another website to get live stats in real time.

Just Copy below code and paste that wherever you want this badge to appear.