1
Category: Movies Date Uploaded: last month Completed: 624
Total Size: 842.66 MB Seeder(s): 4 Magnet Link:
Uploaded By: MovieFreak Leecher(s): 0 Direct Link:
Last Checked: Yesterday

Update Current Stats >>> 

Hash Info: E0AFFC1847ED81867A95333ED54A34FDCD00BA84

Cover Picture:

5aa6e15cf193a3.05737105.jpg

Torrent Description:


[center]



General
Format                                   : Matroska
Format version                           : Version 4 / Version 2
File size                                : 843 MiB
Duration                                 : 1 h 32 min
Overall bit rate                         : 1 275 kb/s

Video
ID                                       : 1
Format                                   : AVC
Format/Info                              : Advanced Video Codec
Format profile                           : [email protected]
Format settings                          : CABAC / 4 Ref Frames
Format settings, CABAC                   : Yes
Format settings, RefFrames               : 4 frames
Codec ID                                 : V_MPEG4/ISO/AVC
Duration                                 : 1 h 32 min
Bit rate                                 : 1 200 kb/s
Width                                    : 1 226 pixels
Height                                   : 536 pixels
Display aspect ratio                     : 2.25:1
Frame rate mode                          : Constant
Frame rate                               : 23.976 (24000/1001) FPS
Color space                              : YUV
Chroma subsampling                       : 4:2:0
Bit depth                                : 8 bits
Scan type                                : Progressive
Bits/(Pixel*Frame)                       : 0.076
Stream size                              : 778 MiB (92%)
Writing library                          : x264 core 148 r2708 86b7198
Default                                  : Yes
Forced                                   : No

Audio
ID                                       : 2
Format                                   : AAC
Format/Info                              : Advanced Audio Codec
Format profile                           : LC
Codec ID                                 : A_AAC-2
Duration                                 : 1 h 32 min
Bit rate                                 : 96.0 kb/s
Channel(s)                               : 2 channels
Channel positions                        : Front: L R
Sampling rate                            : 44.1 kHz
Frame rate                               : 43.066 FPS (1024 SPF)
Compression mode                         : Lossy
Stream size                              : 63.5 MiB (8%)
Language                                 : English
Default                                  : Yes
Forced                                   : No

Menu
00:00:00.000                             : en:1
00:10:04.000                             : en:2
00:19:22.000                             : en:3
00:29:57.000                             : en:4
00:38:57.000                             : en:5
00:50:01.000                             : en:6
01:02:32.000                             : en:7
01:13:21.000                             : en:8
01:24:49.000                             : en:9
01:29:32.000                             : en:10

 


[/center]

 

Stillwater 2018 720p WEB-DL x264 AAC/Stillwater 2018 720p WEB-DL x264 AAC.mkv  -  842.7MB
udp://tracker.pirateparty.gr:6969/announce
udp://tracker.opentrackr.org:1337/announce
http://tracker.opentrackr.org/announce
udp://tracker.vanitycore.co:6969/announce
udp://public.popcorn-tracker.org:6969/announce
udp://9.rarbg.to:2710/announce
udp://9.rarbg.me:2710/announce
udp://9.rarbg.com:2770/announce
udp://inferno.demonoid.pw:3391/announce
udp://tracker.internetwarriors.net:1337/announce
udp://ipv4.tracker.harry.lu:80/announce
udp://p4p.arenabg.ch:1337/announce
http://tracker.vanitycore.co:6969/announce
http://public.popcorn-tracker.org:6969/announce
udp://tracker.zer0day.to:1337/announce

Please Login Or Register to comment :)

Embed below badge on another website to get live stats in real time.

Just Copy below code and paste that wherever you want this badge to appear.