1
Category: TV Date Uploaded: last month Completed: 89
Total Size: 5.66 GB Seeder(s): 26 Magnet Link:
Uploaded By: MovieFreak Leecher(s): 28 Direct Link:
Last Checked: last month

Update Current Stats >>> 

Hash Info: 87CDBC427896BE83540ED343CD24FD4FEB80AB3F

Torrent Description:


[center]


General
Format                                   : Matroska
Format version                           : Version 4 / Version 2
File size                                : 5.66 GiB
Duration                                 : 3 h 5 min
Overall bit rate                         : 4 369 kb/s

Video
Format                                   : AVC
Format/Info                              : Advanced Video Codec
Format profile                           : [email protected]
Duration                                 : 3 h 5 min
Bit rate                                 : 4 238 kb/s
Nominal bit rate                         : 4 500 kb/s
Width                                    : 1 920 pixels
Height                                   : 1 080 pixels
Stream size                              : 5.49 GiB (97%)

Audio
Format                                   : AAC
Duration                                 : 3 h 5 min
Bit rate                                 : 128 kb/s
Channel(s)                               : 2 channels
Stream size                              : 170 MiB (3%)


[/center]

 

The 90th Annual Academy Awards 2018 1080p WEB-DL x264/The 90th Annual Academy Awards 2018 1080p WEB-DL x264.mkv  -  5.7GB
udp://tracker.pirateparty.gr:6969/announce
udp://tracker.opentrackr.org:1337/announce
http://tracker.opentrackr.org/announce
udp://tracker.vanitycore.co:6969/announce
udp://public.popcorn-tracker.org:6969/announce
udp://9.rarbg.to:2710/announce
udp://9.rarbg.me:2710/announce
udp://9.rarbg.com:2770/announce
udp://inferno.demonoid.pw:3391/announce
udp://tracker.internetwarriors.net:1337/announce
udp://ipv4.tracker.harry.lu:80/announce
udp://p4p.arenabg.ch:1337/announce
http://tracker.vanitycore.co:6969/announce
http://public.popcorn-tracker.org:6969/announce
udp://tracker.zer0day.to:1337/announce

Please Login Or Register to comment :)

Embed below badge on another website to get live stats in real time.

Just Copy below code and paste that wherever you want this badge to appear.