1
Category: Movies Date Uploaded: May 2018 Completed: 8208
Total Size: 1.87 GB Seeder(s): 1 Magnet Link:
Uploaded By: MovieFreak Leecher(s): 1 Direct Link:
Last Checked: 5 days ago

Update Current Stats >>> 

Hash Info: 69C1B6F425AB4F2DB02ACA5C040BE3B4D7157ACE

Torrent Description:


[center]


General
Format                                   : Matroska
Format version                           : Version 4 / Version 2
File size                                : 1.87 GiB
Duration                                 : 1 h 34 min
Overall bit rate                         : 2 828 kb/s

Video
ID                                       : 1
Format                                   : AVC
Format/Info                              : Advanced Video Codec
Format profile                           : [email protected]
Format settings                          : CABAC / 4 Ref Frames
Format settings, CABAC                   : Yes
Format settings, RefFrames               : 4 frames
Codec ID                                 : V_MPEG4/ISO/AVC
Duration                                 : 1 h 34 min
Bit rate                                 : 2 500 kb/s
Width                                    : 1 918 pixels
Height                                   : 798 pixels
Display aspect ratio                     : 2.40:1
Frame rate mode                          : Constant
Frame rate                               : 24.000 FPS
Color space                              : YUV
Chroma subsampling                       : 4:2:0
Bit depth                                : 8 bits
Scan type                                : Progressive
Bits/(Pixel*Frame)                       : 0.068
Stream size                              : 1.62 GiB (86%)
Writing library                          : x264 core 155 r2893 b00bcaf
Default                                  : Yes
Forced                                   : No

Audio
ID                                       : 2
Format                                   : AC-3
Format/Info                              : Audio Coding 3
Codec ID                                 : A_AC3
Duration                                 : 1 h 34 min
Bit rate mode                            : Constant
Bit rate                                 : 384 kb/s
Channel(s)                               : 6 channels
Channel positions                        : Front: L C R, Side: L R, LFE
Sampling rate                            : 48.0 kHz
Frame rate                               : 31.250 FPS (1536 SPF)
Bit depth                                : 16 bits
Compression mode                         : Lossy
Stream size                              : 261 MiB (14%)
Language                                 : English
Service kind                             : Complete Main
Default                                  : Yes
Forced                                   : No

Menu
00:00:00.000                             : en:Chapter 1
00:19:14.333                             : en:Chapter 2
00:39:36.958                             : en:Chapter 3
00:56:54.583                             : en:Chapter 4
01:15:01.625                             : en:Chapter 5
01:29:13.958                             : en:Chapter 6

 


[/center]

 

The Cured 2017 1080p WEB-DL DD 5.1 x264 [MW]/The Cured 2017 1080p WEB-DL DD 5.1 x264 [MW].mkv  -  1.9GB
udp://tracker.pirateparty.gr:6969/announce
udp://tracker.opentrackr.org:1337/announce
udp://tracker.vanitycore.co:6969/announce
udp://public.popcorn-tracker.org:6969/announce
udp://9.rarbg.to:2740/announce
udp://9.rarbg.me:2780/announce
udp://9.rarbg.com:2740/announce
udp://inferno.demonoid.pw:3391/announce
udp://tracker.tntvillage.scambioetico.org:2710/announce
udp://tracker.opentrackr.org:1337/announce
udp://tracker.coppersurfer.tk:80/announce

Please Login Or Register to comment :)

Embed below badge on another website to get live stats in real time.

Just Copy below code and paste that wherever you want this badge to appear.