1
Category: Movies Date Uploaded: March 2018 Completed: 88
Total Size: 1.66 GB Seeder(s): 3 Magnet Link:
Uploaded By: MovieFreak Leecher(s): 5 Direct Link:
Last Checked: April 2018

Update Current Stats >>> 

Hash Info: A866ABE9ECD25655981C39AA0DD7E4D864EF7D83

Cover Picture:

5aa6a28ea82535.68259365.jpg

Torrent Description:


[center]


General
Format                                   : Matroska
Format version                           : Version 4 / Version 2
File size                                : 1.66 GiB
Duration                                 : 1 h 28 min
Overall bit rate                         : 2 677 kb/s

Video
ID                                       : 1
Format                                   : AVC
Format/Info                              : Advanced Video Codec
Format profile                           : [email protected]
Format settings                          : CABAC / 4 Ref Frames
Format settings, CABAC                   : Yes
Format settings, RefFrames               : 4 frames
Codec ID                                 : V_MPEG4/ISO/AVC
Duration                                 : 1 h 28 min
Bit rate                                 : 2 300 kb/s
Width                                    : 1 908 pixels
Height                                   : 1 068 pixels
Display aspect ratio                     : 16:9
Frame rate mode                          : Constant
Frame rate                               : 23.976 (24000/1001) FPS
Color space                              : YUV
Chroma subsampling                       : 4:2:0
Bit depth                                : 8 bits
Scan type                                : Progressive
Bits/(Pixel*Frame)                       : 0.047
Stream size                              : 1.42 GiB (86%)
Writing library                          : x264 core 148 r2708 86b7198
Default                                  : Yes
Forced                                   : No

Audio
ID                                       : 2
Format                                   : AC-3
Format/Info                              : Audio Coding 3
Codec ID                                 : A_AC3
Duration                                 : 1 h 28 min
Bit rate mode                            : Constant
Bit rate                                 : 384 kb/s
Channel(s)                               : 6 channels
Channel positions                        : Front: L C R, Side: L R, LFE
Sampling rate                            : 48.0 kHz
Frame rate                               : 31.250 FPS (1536 SPF)
Bit depth                                : 16 bits
Compression mode                         : Lossy
Stream size                              : 243 MiB (14%)
Language                                 : English
Service kind                             : Complete Main
Default                                  : Yes
Forced                                   : No

Text
ID                                       : 3
Format                                   : UTF-8
Codec ID                                 : S_TEXT/UTF8
Codec ID/Info                            : UTF-8 Plain Text
Duration                                 : 1 h 27 min
Bit rate                                 : 40 b/s
Count of elements                        : 1007
Stream size                              : 26.0 KiB (0%)
Language                                 : English
Default                                  : Yes
Forced                                   : No

Menu
00:00:00.000                             : en:1
00:09:19.000                             : en:2
00:18:53.000                             : en:3
00:28:42.000                             : en:4
00:38:34.000                             : en:5
00:48:58.000                             : en:6
00:58:28.000                             : en:7
01:07:47.000                             : en:8
01:17:03.000                             : en:9
01:24:43.000                             : en:10




[/center]

 

The Sandman 2017 1080p WEB-DL DD 5.1 x264 ESub/The Sandman 2017 1080p WEB-DL DD 5.1 x264 ESub.mkv  -  1.7GB
udp://tracker.pirateparty.gr:6969/announce
udp://tracker.opentrackr.org:1337/announce
http://tracker.opentrackr.org/announce
udp://tracker.vanitycore.co:6969/announce
udp://public.popcorn-tracker.org:6969/announce
udp://9.rarbg.to:2710/announce
udp://9.rarbg.me:2710/announce
udp://9.rarbg.com:2770/announce
udp://inferno.demonoid.pw:3391/announce
udp://tracker.internetwarriors.net:1337/announce
udp://ipv4.tracker.harry.lu:80/announce
udp://p4p.arenabg.ch:1337/announce
http://tracker.vanitycore.co:6969/announce
http://public.popcorn-tracker.org:6969/announce
udp://tracker.zer0day.to:1337/announce

Please Login Or Register to comment :)

Embed below badge on another website to get live stats in real time.

Just Copy below code and paste that wherever you want this badge to appear.