1
Category: Movies Date Uploaded: March 2018 Completed: 1657
Total Size: 1.44 GB Seeder(s): 1 Magnet Link:
Uploaded By: LifeLongg Leecher(s): 2 Direct Link:
Last Checked: 4 weeks ago

Update Current Stats >>> 

Hash Info: C6425F9BF55BA43A3A580787C02A2A060791A951

Torrent Description:


******************************Thumbnail:********************** 



******************************Screenshots:******************** 

Screenshot 1 

Screenshot 2 

Screenshot 3 

Screenshot 4 

Screenshot 5 

Screenshot 6 

Screenshot 7 

Screenshot 8 

Screenshot 9 

Screenshot 0 

************************************************************** 

Complete name : The.Hurricane.Heist.2018.HDCAM.X264.Clean.English.Audio.LLG 
Format : MPEG-4 
Format profile : Base Media 
Codec ID : isom (isom/iso2/avc1/mp41) 
File size : 1.42 GiB 
Duration : 1 h 35 min 
Overall bit rate : 2 128 kb/s 
Writing application : Lavf57.56.101 

Video 
ID : 1 
Format : AVC 
Format/Info : Advanced Video Codec 
Format profile : [email protected] 
Format settings : CABAC / 4 Ref Frames 
Format settings, CABAC : Yes 
Format settings, RefFrames : 4 frames 
Format settings, GOP : M=1, N=3 
Codec ID : avc1 
Codec ID/Info : Advanced Video Coding 
Duration : 1 h 35 min 
Bit rate : 2 000 kb/s 
Width : 720 pixels 
Height : 480 pixels 
Display aspect ratio : 16:9 
Frame rate mode : Constant 
Frame rate : 29.970 (29970/1000) FPS 
Standard : NTSC 
Color space : YUV 
Chroma subsampling : 4:2:0 
Bit depth : 8 bits 
Scan type : Progressive 
Bits/(Pixel*Frame) : 0.193 
Stream size : 1.33 GiB (94%) 

Audio 
ID : 2 
Format : AC-3 
Format/Info : Audio Coding 3 
Codec ID : ac-3 
Duration : 1 h 35 min 
Bit rate mode : Constant 
Bit rate : 128 kb/s 
Channel(s) : 2 channels 
Channel positions : Front: L R 
Sampling rate : 48.0 kHz 
Frame rate : 31.250 FPS (1536 SPF) 
Bit depth : 16 bits 
Compression mode : Lossy 
Stream size : 87.6 MiB (6%) 
Language : English 
Service kind : Complete Main 
Default : Yes 
Alternate group : 1 

The.Hurricane.Heist.2018.HDCAM.X264.Clean.English.Audio.LLG/Sample.ts  -  20.1MB
The.Hurricane.Heist.2018.HDCAM.X264.Clean.English.Audio.LLG/The.Hurricane.Heist.2018.HDCAM.X264.Clean.English.Audio.LLG.mp4  -  1.4GB
udp://tracker.openbittorrent.com:80/announce
udp://tracker.opentrackr.org:1337/announce

Please Login Or Register to comment :)

Embed below badge on another website to get live stats in real time.

Just Copy below code and paste that wherever you want this badge to appear.